#TITLE:Eyes of Flame;
#SUBTITLE:Doukutsu Monogatari;
#ARTIST:Pixel;
#TITLETRANSLIT:;
#SUBTITLETRANSLIT:;
#ARTISTTRANSLIT:;
#CREDIT:;
#BANNER:Eyes of Flame.png;
#BACKGROUND:Eyes of Flame-bg.png;
#LYRICSPATH:;
#CDTITLE:!exige.png;
#MUSIC:Eyes of Flame.mp3;
#OFFSET:-0.115;
#SAMPLESTART:30.374;
#SAMPLELENGTH:20.500;
#SELECTABLE:YES;
#BPMS:0.000=187.480,220.000=187.480,224.000=187.460;
#STOPS:;
#BGCHANGES:;
// cache tags:
#FIRSTBEAT:0.000;
#LASTBEAT:160.000;
#SONGFILENAME:Songs/Music V.I.P ^_^/Eyes of Flame (Exige)/Eyes of Flame.sm;
#HASMUSIC:1;
#HASBANNER:1;
#MUSICLENGTH:56.424;
// end cache tags

//---------------dance-single - ----------------
#NOTES:
     dance-single:
     :
     Hard:
     11:
     1.000,1.000,1.000,0.815,0.806,376.000,149.000,46.000,0.000,0.000:

0001
0010
0100
1000
0010
0000
0110
0000
1010
0000
0022
0000
0000
0033
0110
0000
,
1000
0100
0010
0001
1000
0000
0001
0000
0001
0010
0100
1000
0001
0000
1000
0000
,
1000
0100
0010
0001
1000
0000
0011
0000
0110
0000
2020
0000
0000
3030
0110
0000
,
0000
0110
0011
1100
1010
0110
1010
1100
,
1000
0010
1000
0010
0100
0000
1100
0000
0011
0000
2002
0000
0000
3003
1100
0000
,
0001
0100
0001
0100
0010
0000
0010
0000
0001
0100
0001
0100
0010
0000
0100
0000
,
1000
0001
1000
0001
0010
0000
0110
0000
0011
0000
2200
0000
0000
3300
0011
0000
,
0000
0110
0011
1100
0110
1100
0110
1100
,
1001
0101
1000
0011
1000
0101
1010
1100
,
0101
0000
1100
0000
0110
0000
0022
0000
0000
0033
0110
0000
1010
0000
1100
0000
,
1010
0000
1100
0000
1010
0000
1100
0000
1001
0000
0010
0100
0001
1000
0010
0100
,
1001
0000
0110
0000
0110
0000
2002
0000
0000
3003
1100
0000
0110
0000
1001
0000
,
0100
0010
0001
1000
0100
0000
0110
0000
0011
0000
2200
0000
0000
3300
1100
0000
,
0001
1000
0001
1000
0010
0000
1000
0000
1000
0001
1000
0001
0100
0000
0001
0000
,
0001
1000
0001
1000
0100
0000
0110
0000
1010
0000
0202
0000
0000
0303
0110
0000
,
0000
0110
1010
0011
1100
0110
1010
1100
,
0110
0011
1100
0011
1010
0011
1100
1010
,
1001
0000
0110
0000
0101
0000
0022
0000
0000
0033
0011
0000
0110
0000
1100
0000
,
0101
0000
0110
0000
0101
0000
1100
0000
0100
1000
0010
0100
0001
0010
0001
0100
,
0011
0000
0110
0000
0110
0000
0022
0000
0000
0033
0011
0000
0110
0000
0110
0000
,
0001
0100
0010
1000
0002
0000
0000
0000
0003
0000
0000
0000
0001
0000
0001
0000
,
0001
0100
0010
0000
0010
0000
0010
0000
0100
0000
0100
0000
1000
0000
1000
0000
,
0100
0001
0100
0010
0002
0000
0000
0000
0003
0000
0000
0000
0001
0000
0001
0000
,
0010
0110
0011
1100
0110
1100
1010
1100
,
0101
0000
0010
1000
0101
0000
1000
0001
0010
0000
0010
1000
0101
0000
0001
0100
,
0001
0000
0100
1000
0101
0000
1000
0010
0100
0000
0010
0100
1001
0000
0010
0001
,
1000
0010
1000
0010
0100
0000
1100
0000
1010
0000
0022
0000
0000
0033
1100
0000
,
0100
0001
0100
0001
1000
0000
0011
0000
0101
0000
2200
0000
0000
3300
0010
0100
,
1001
0000
0100
1000
0011
0000
1000
0001
0010
0000
0001
1000
0011
0000
1000
0001
,
0100
0000
0100
0001
0110
0000
0100
0001
1000
0000
0010
0001
1100
0000
0100
1000
,
0010
0100
0010
0100
1000
0000
1001
0000
0011
0000
2020
0000
0000
3030
0110
0000
,
0010
0100
1000
0001
0010
0000
0110
0000
0011
0000
2200
0000
0000
3300
0010
0100
,
1001
0000
0100
1000
0011
1000
0001
1000
0100
0000
0010
0001
1100
0001
1000
0100
,
0010
0000
0100
1000
0011
1000
0100
0010
0001
0000
1000
0100
1001
0100
0010
0001
,
1000
0100
1000
0100
0010
0000
1100
0000
0110
0000
2002
0000
0000
3003
0110
0000
,
0010
0100
0010
0100
1000
0000
0110
0000
1001
0000
2200
0000
0000
3300
0001
0010
,
1001
0000
0100
1000
0011
1000
0001
1000
0001
0000
0010
0100
1001
0100
0010
0001
,
1000
0000
1000
0001
1100
0001
1000
0001
1000
0000
0001
0100
0010
1000
0010
0100
,
2002
0000
3003
0220
0000
0330
2002
0000
,
3003
0220
0000
0330
2002
3003
0220
0000
,
0330
0000
0000
0000
;

//---------------dance-solo - ----------------
#NOTES:
     dance-solo:
     :
     Hard:
     1:
     0.134,0.128,0.000,0.000,0.071,53.000,0.000,0.000,0.000,0.000:




100000
010000
001000
000100
000010
000001
000000
000001
,
100000
000001
100000
000001
100000
000001
100000
000001
,
100000
010000
001000
000100
000010
000001
000000
010000
,
000000
000010
010000
000010
010000
000010
010000
000010
,
000100
001000
000100
001000
000100
001000
000000
000100
,
010000
001000
000100
000010
100000
000001
010000
001000
000100
000010
100000
000001
010000
001000
000100
000010
,
100000
000000
000000
000000
;

//---------------dance-solo - ----------------
#NOTES:
     dance-solo:
     :
     Challenge:
     1:
     0.000,0.000,0.000,0.000,0.000,0.000,0.000,0.000,0.000,0.000:




000000
000000
000000
000000
;
